загрузка пожалуйста подождите

GRACE CLOWN SHOW(Шоу Клоуна Благодати)




:: Детали торрента
В закладки
Музыкальное видеоСлово жизни - Моё сердце (2011) DVDRip Скачать
Хэш релизаdcf8930f62cfa6074ebcd7289b5882d70a8003ac
Постер/Скриншоты
           
ОписаниеИсполнитель: Слово жизни
Альбом: Моё сердце
Год выхода: 2011
Жанр: Прославление/поклонение
Выпущено: Россия, Москва, церковь "Слово жизни"

Описание:
Новый альбом молодежного служения церкви "Слово жизни"

Треклист:
01. Создал небо
02. Давай прославим
03. Надежда в Тебе
04. Вознесённый Агнец Божий
05. Наш Бог
06. Словно пламя
07. В этом городе Ты - Бог
08. Возносим Тебя
09. Моё сердце
10. Мне нужен Ты
11. Всё к Твоим ногам

Качество: DVDRip (by Aleksey)
Формат: AVI
Видео: XVID, 720x400 (16:9), 25.000 fps, 2981 Kbps
Аудио: Dolby AC3, 48000 Hz, stereo, 192 Kbps
Продолжительность: 01:05:38
Перевод: Русский (оригинал)

Посмотреть онлайн на God-Tv.ru
ТипМузыкальное видео
РаздающийПоследний раз был здесь 2:21:13 назад
Размер1.46 GB (1,566,615,552 байт)
Оценка
Оценка: 5.0 / 5 (5.0 из 5 с 15 Голосов)        (Log in to rate it)
Добавлен2011-09-15 21:30:22
Взят690
РаздалAleksey Респект
Файлов: 1
В раздаче: 1 0
Скачан 411

:: Список комментариев
Страницы:  1 
:: Не в сети Aleksey ::Donor почётный ветеран трекера :: upload 356.81 TB :: download 1.44 TB :: 247.14 :: 0

MediaInfo Скрытый текст / Картинка

General
Complete name                    : E:\4down\Torrent\Слово жизни - Моё сердце (2011) DVDRip_by_Aleksey.avi
Format                           : AVI
Format/Info                      : Audio Video Interleave
File size                        : 1.46 GiB
Duration                         : 1h 5mn
Overall bit rate                 : 3 183 Kbps
Writing application              : VirtualDubMod 1.5.10.2 (build 2540/release)
Writing library                  : VirtualDubMod build 2540/release

Video
ID                               : 0
Format                           : MPEG-4 Visual
Format profile                   : Advanced Simple@L5
Format settings, BVOP            : 1
Format settings, QPel            : No
Format settings, GMC             : No warppoints
Format settings, Matrix          : Custom
Codec ID                         : XVID
Codec ID/Hint                    : XviD
Duration                         : 1h 5mn
Bit rate                         : 2 981 Kbps
Width                            : 720 pixels
Height                           : 400 pixels
Display aspect ratio             : 16:9
Frame rate                       : 25.000 fps
Color space                      : YUV
Chroma subsampling               : 4:2:0
Bit depth                        : 8 bits
Scan type                        : Progressive
Compression mode                 : Lossy
Bits/(Pixel*Frame)               : 0.414
Stream size                      : 1.37 GiB (94%)
Writing library                  : XviD 1.2.1 (UTC 2008-12-04)

Audio
ID                               : 1
Format                           : AC-3
Format/Info                      : Audio Coding 3
Mode extension                   : CM (complete main)
Codec ID                         : 2000
Duration                         : 1h 5mn
Bit rate mode                    : Constant
Bit rate                         : 192 Kbps
Channel(s)                       : 2 channels
Channel positions                : Front: L R
Sampling rate                    : 48.0 KHz
Bit depth                        : 16 bits
Compression mode                 : Lossy
Stream size                      : 90.1 MiB (6%)
Alignment                        : Split accross interleaves
Interleave, duration             : 40 ms (1.00 video frame)
Interleave, preload duration     : 500 ms

Последний раз редактировалось Aleksey в 2011-09-15 21:35:16



Добавлено: 2011-09-15 21:35:00

:: Не в сети Aleksey ::Donor почётный ветеран трекера :: upload 356.81 TB :: download 1.44 TB :: 247.14 :: 0

Ты, Ты - смысл моей жизни
Ты, Ты - для Кого живу я
Ты, Ты - смысл моей жизни
Ты, Ты :!: ИИСУС
:medieval:


Добавлено: 2011-09-15 23:09:21

:: Не в сети adam :: Опытный пользователь :: upload 519.55 GB :: download 47.43 GB :: 10.95 :: 0

Класное прославление!! Спасибо Леша


Добавлено: 2011-09-16 21:40:25

:: Не в сети Argo :: Опытный пользователь :: upload 45.94 GB :: download 37.08 GB :: 1.24 :: 0

Великолепно!


Добавлено: 2011-09-24 18:46:19

:: Не в сети SA :: VIP :: upload 628.54 GB :: download 90.74 GB :: 6.93 :: 0

Спасибо Алексей за хороший рип. Качаю


Добавлено: 2011-10-21 09:50:02

:: Не в сети Vendens :: Опытный пользователь :: upload 224.74 GB :: download 90.77 GB :: 2.48 :: 0

Спасибо! Классное прославление, качественно ,мелодично!!! Наслаждение в Господе!


Добавлено: 2011-12-04 23:27:08

:: Не в сети GGG :: Опытный пользователь :: upload 250.74 GB :: download 30.00 GB :: 8.36 :: 0

Даже очен очен...


Добавлено: 2012-04-05 08:39:13

:: Не в сети Vasili82 :: Пользователь :: upload 4.96 GB :: download 50.90 GB :: 0.10 :: 0

Большое спасибо!


Добавлено: 2012-12-11 07:57:42

:: Не в сети steep13 :: Опытный пользователь :: upload 119.63 GB :: download 72.80 GB :: 1.64 :: 0

Вопрос - а есть возможность в сиди формате взять, или придётся самому бороться


Добавлено: 2013-02-13 05:09:37

:: Не в сети Voin777 ::Donor Внимательный :) :: upload 10.79 TB :: download 11.73 GB :: 941.78 :: 0

steep13 писал
Вопрос - а есть возможность в сиди формате взять, или придётся самому бороться


есть...ссылку на этот альбом отправил в ЛС ... ;-)


Добавлено: 2013-02-13 05:37:44

Всего 10 на 1 страницах по 10 на каждой странице.

Страницы:  1 
 :: Добавить комментарий к торренту