загрузка пожалуйста подождите

GRACE CLOWN SHOW(Шоу Клоуна Благодати)




:: Детали торрента
В закладки
Фильмы DVDХайди: Альпийская сказка / Heidi (2005) DVD5 Скачать
Хэш релиза1c5899d75923d5382ee6b40d246309f80fc647b8
Постер/Скриншоты
           
ОписаниеРусское название: Хайди. Альпийская сказка
Оригинальное название: Heidi
Год выпуска: 2005
Жанр: Семейный, Драма
Режиссер: Пол Маркус
Актеры: Эмма Болгер, Макс фон Сюдов, Джеральдин Чаплин, Диана Ригг, Джессика Кларидж

Описание:
Невероятно красивая картина для семейного просмотра. Прекрасный актерский состав, добрая история, живописные альпийские пейзажи, Европа 19 века. Хайди - сирота, и ее тетка, не желая содержать девочку, повезла ее к деду, который живет очень уединенно в горах и, после смерти сына, спускается в город раз в месяц, чтобы продать сыр.
Пожилому отшельнику совсем не понравилась эта идея, но тетушка просто оставила Хайди у него под дверью… Постепенно дед и внучка узнают друг о друге все больше, и по-настоящему сближаются. Хайди нравится размеренная жизнь на природе, и то, что рядом с ней родной человек. И дед уже не чувствует себя одиноким и ненужным. Через год за Хайди возвращается тетка, чтобы забрать девочку в город – она нашла ей место приживалки в состоятельной семье.

Качество: DVD5
Формат: MPEG-PS
Видео: MPEG-2, 4793 Кбит/сек, 720х480 (4:3), 23,976 кадр/сек
Аудио №1: Dolby AC3, 6 ch, 384 Кбит/сек - Русский
Аудио №2: AC3, 2 ch, 192 Кбит/сек - Русский
Аудио №3: AC3, 2 ch, 192 Кбит/сек - Английский
Продолжительность: 01:43:38
Перевод: Многоголосый закадровый
Субтитры: Русские
Дополнительно: Фотогалерея, опция "Смотрите на DVD" не рабочая.

MediaInfo: Скрытый текст / Картинка

Формат                           : MPEG-PS
Размер файла                     : 1024 Мбайт
Продолжительность                : 25 м.
Общий поток                      : 5674 Кбит/сек

Видео
Идентификатор                    : 224 (0xE0)
Формат                           : MPEG Video
Версия формата                   : Version 2
Профиль формата                  : Main@Main
Параметр BVOP формата            : Да
Параметр матрицы формата         : По умолчанию
Продолжительность                : 25 м.
Вид битрейта                     : Переменный
Битрейт                          : 4793 Кбит/сек
Номинальный битрейт              : 8467 Кбит/сек
Ширина                           : 720 пикс.
Высота                           : 480 пикс.
Соотношение сторон               : 4:3
Частота кадров                   : 23,976 кадр/сек
Стандарт вещания                 : NTSC
Цветовое пространство            : YUV
Подвыборка цветности             : 4:2:0
Битовая глубина                  : 8 бит
Тип развёртки                    : Прогрессивная
Порядок развёртки                : 2:3 Pulldown
Метод сжатия                     : С потерями
Бит/(Пиксели*Кадры)              : 0.578
Размер потока                    : 865 Мбайт (84%)

Аудио #1
Идентификатор                    : 128 (0x80)
Формат                           : AC-3
Формат/Информация                : Audio Coding 3
Расширение режима                : CM (complete main)
Продолжительность                : 25 м.
Вид битрейта                     : Постоянный
Битрейт                          : 384 Кбит/сек
Канал(ы)                         : 6 канала(ов)
Расположение каналов             : Front: L C R, Side: L R, LFE
Частота                          : 48,0 КГц
Битовая глубина                  : 16 бит
Метод сжатия                     : С потерями
Размер потока                    : 69,3 Мбайт (7%)

Аудио #2
Идентификатор                    : 129 (0x81)
Формат                           : AC-3
Формат/Информация                : Audio Coding 3
Расширение режима                : CM (complete main)
Продолжительность                : 25 м.
Вид битрейта                     : Постоянный
Битрейт                          : 192 Кбит/сек
Канал(ы)                         : 2 канала(ов)
Расположение каналов             : Front: L R
Частота                          : 48,0 КГц
Битовая глубина                  : 16 бит
Метод сжатия                     : С потерями
Размер потока                    : 34,6 Мбайт (3%)

Аудио #3
Идентификатор                    : 131 (0x83)
Формат                           : AC-3
Формат/Информация                : Audio Coding 3
Расширение режима                : CM (complete main)
Продолжительность                : 25 м.
Вид битрейта                     : Постоянный
Битрейт                          : 192 Кбит/сек
Канал(ы)                         : 2 канала(ов)
Расположение каналов             : Front: L R
Частота                          : 48,0 КГц
Битовая глубина                  : 16 бит
Метод сжатия                     : С потерями
Размер потока                    : 34,6 Мбайт (3%)

Текст
Идентификатор                    : 32 (0x20)
Формат                           : RLE
Формат/Информация                : Run-length encoding
ТипФильмы DVD
РаздающийПоследний раз был здесь 1:06:41 назад
Размер4.34 GB (4,658,573,312 байт)
Оценка
Оценка: 5.0 / 5 (5.0 из 5 с 2 Голосов)        (Log in to rate it)
Добавлен2012-02-14 13:29:33
Взят133
РаздалA_N_I_m_a_T_O_R Респект
Файлов: 19
В раздаче: 1 0
Скачан 81

:: Список комментариев
Страницы:  1 
:: Не в сети A_N_I_m_a_T_O_R ::Donor ReAnImAtOr :: upload 7.16 TB :: download 276.10 GB :: 26.57 :: 0

Хороший рип будет после того, как раздам данный релиз...


Добавлено: 2012-02-14 13:38:00

:: Не в сети rootim :: Почётный аплоадер :: upload 5.65 TB :: download 231.15 GB :: 25.04 :: 0

Я могу выложить рип.


Добавлено: 2012-02-15 15:21:21

:: Не в сети A_N_I_m_a_T_O_R ::Donor ReAnImAtOr :: upload 7.16 TB :: download 276.10 GB :: 26.57 :: 0

rootim писал
Я могу выложить рип.


А можно параметры Вашего рипа?


Добавлено: 2012-02-15 15:41:20

:: Не в сети rootim :: Почётный аплоадер :: upload 5.65 TB :: download 231.15 GB :: 25.04 :: 0

1-я версия (1.45 Gb, avi):
Видео: XviD build 50, 720x528, 1421 kbp, 23.976 fps
Аудио:#1: Russian, Dolby Digital AC3, 384.00 kbps avg, 6 ch.,  48 kHz
Аудио:#2: English, Dolby Digital AC3, 192.00 kbps avg, 2 ch., 48 kHz

2-я версия (1.37 Gb, avi):
Видео: DivX, 560x416, 1497 kbps avg, 23.976 fps, 0.27 bit/pixel
Аудио:  Dolby Digital AC3 , 384.00 kbps avg, 6 ch., 48 kHz

Последний раз редактировалось rootim в 2012-02-15 16:28:13



Добавлено: 2012-02-15 16:05:09

:: Не в сети A_N_I_m_a_T_O_R ::Donor ReAnImAtOr :: upload 7.16 TB :: download 276.10 GB :: 26.57 :: 0

rootim писал
1-я версия (1.45 Gb, avi):
Видео: XviD build 50, 720x528, 1421 kbp, 23.976 fps
Аудио:#1: Russian, Dolby Digital AC3, 384.00 kbps avg, 6 ch.,  48 kHz
Аудио:#2: English, Dolby Digital AC3, 192.00 kbps avg, 2 ch., 48 kHz

2-я версия (1.37 Gb, avi):
Видео: DivX, 560x416, 1497 kbps avg, 23.976 fps, 0.27 bit/pixel
Аудио:  Dolby Digital AC3 , 384.00 kbps avg, 6 ch., 48 kHz


У меня немного выше показатели...


Добавлено: 2012-02-15 19:12:05

Всего 5 на 1 страницах по 10 на каждой странице.

Страницы:  1 
 :: Добавить комментарий к торренту