загрузка пожалуйста подождите

GRACE CLOWN SHOW(Шоу Клоуна Благодати)




:: Детали торрента
В закладки
Уроки музыки для левитовAbraham Laboriel – New Bass Concepts (1990) VHSRip Скачать
Хэш релизаa375a8169b6637c4e9558ff3e471d7c3f562eb88
Постер/Скриншоты
         
ОписаниеНазвание: New Bass Concepts
Год выпуска: 1990
Выпущено: USA
Жанр: Видеошкола, мастер-класс (бас гитара)
Преподаватель: Abraham Laboriel
Язык: Английский

Качество: VHSRip
Формат: AVI
Видео: DivX 5, 640x480, 25.00fps, 1101Kbps
Аудио: MPEG Audio Layer 3, 44100Hz,  mono, 320Kbps
Продолжительность:  01:06:14

"Media Info"

Format                           : AVI
Format/Info                      : Audio Video Interleave
File size                        : 678 MiB
Duration                         : 1h 6mn
Overall bit rate                 : 1 431 Kbps
Writing library                  : VirtualDub build 18160/release

Video
Format                           : MPEG-4 Visual
Format settings, BVOP            : No
Format settings, QPel            : No
Format settings, GMC             : No warppoints
Format settings, Matrix          : Default
Codec ID                         : DX50
Codec ID/Hint                    : DivX 5
Duration                         : 1h 6mn
Bit rate                         : 1 101 Kbps
Width                            : 640 pixels
Height                           : 480 pixels
Display aspect ratio             : 4/3
Frame rate                       : 25.000 fps
Resolution                       : 24 bits
Colorimetry                      : 4:2:0
Scan type                        : Progressive
Bits/(Pixel*Frame)               : 0.143
Stream size                      : 522 MiB (77%)
Writing library                  : DivX 5.0.5 (UTC 2003-04-24)

Audio
Format                           : MPEG Audio
Format version                   : Version 1
Format profile                   : Layer 3
Codec ID                         : 55
Codec ID/Hint                    : MP3
Duration                         : 1h 6mn
Bit rate mode                    : Constant
Bit rate                         : 320 Kbps
Channel(s)                       : 1 channel
Sampling rate                    : 44.1 KHz
Resolution                       : 16 bits
Stream size                      : 152 MiB (22%)
Alignment                        : Split accross interleaves
Interleave, duration             : 40 ms (0.99 video frame)
Interleave, preload duration     : 500 ms
ТипУроки музыки для левитов
РаздающийПоследний раз был здесь 2:32:28 назад
Размер677.97 MB (710,899,712 байт)
Оценка
Оценка: 5.0 / 5 (5.0 из 5 с 3 Голосов)        (Log in to rate it)
Добавлен2012-03-28 13:16:13
Взят102
РаздалPashakorg Респект
Файлов: 1
В раздаче: 2 0
Скачан 78

:: Список комментариев
Страницы:  1 
:: Не в сети Артурка :: Опытный пользователь :: upload 5.00 TB :: download 238.81 GB :: 21.44 :: 0

СПАСИБО ОГРОМНОЕ!!!


Добавлено: 2012-03-28 21:19:55

:: Не в сети anatolii :: Пользователь :: upload 58.19 GB :: download 70.63 GB :: 0.82 :: 0

станте кто нибудь на раздачу плиззз 98.5% и никак не докочается...


Добавлено: 2012-03-29 18:21:13

:: Не в сети О_л_е_Г ::Donor Отзывчивый брат :) :: upload 167.84 TB :: download 2.04 TB :: 82.17 :: 0

anatolii писал
станте кто нибудь на раздачу плиззз 98.5% и никак не докочается...

ещё пока никто не скачал, на раздаче только релизёр


Добавлено: 2012-03-29 18:35:14

:: Не в сети Aleksey ::Donor почётный ветеран трекера :: upload 290.42 TB :: download 1.43 TB :: 203.02 :: 0

главное, народ, не уходите с раздачи. для вас же стараются чтобы вы быстрее смогли скачивать. чем больше нас будет на раздаче - тем лучше и быстрее будет скачивание релизов.
благословений!


Добавлено: 2012-03-30 11:06:37

Всего 4 на 1 страницах по 10 на каждой странице.

Страницы:  1 
 :: Добавить комментарий к торренту