загрузка пожалуйста подождите

GRACE CLOWN SHOW(Шоу Клоуна Благодати)




:: Детали торрента
В закладки
Фильмы XviD/Mpeg/и другиеОтлучение / The Shunning (2011) DVDRip Скачать
Хэш релизаfcd86f3687c37fbc5282c5857f0960c419ec08ae
Постер/Скриншоты
           
ОписаниеНазвание: Отлучение
Оригинальное название: The Shunning
Год выхода: 2011
Жанр: Драма
Выпущено: США
Режиссер: Michael Landon Jr.
В ролях: Danielle Panabaker, Bill Oberst Jr., Sherry Stringfield, Burgess Jenkins, Sandra W. Van Natta, Rachel St. Gelais, Stephen Rogers, Jimmy Hager, Nancy Saunders

Описание: Скрытый текст / Картинка
В центре истории – красавица Кейти Лэпп (Даниэль Панабэкер), которая живет в общине амишей в округе Ланкастер. Героиня картины «Отлучение» всегда чувствовала, что в ее прошлом есть какая-то тайна. Эти ее подозрения укрепляются после того, как в общину прибывает таинственная незнакомка.

Амиши – представители религиозного движения, зародившегося в 17- 18 веках в Европе. Амиши живут общинами, ведут довольно уединенный образ жизни, и придерживаются консервативных взглядов. Их вера основана на строгом толковании Библии.


Качество: DVDRip
Формат: AVI
Видео: XviD, 720x400 (16:9), 23.976 fps, 2028 kbps
Аудио: AC-3, 48.0 KHz, 2 ch (Front: L R), 192 kbps
Продолжительность: 01:27:45
Перевод: Русский любительский (двухголосый) Озвучка: denisblek & Tanya группа ©jesus-torrent.ru

Log: Скрытый текст / Картинка

FILES
------------------------------
VTS_01_1.VOB >
VTS_01_2.VOB >
VTS_01_3.VOB >
VTS_01_4.VOB >
Отлучение (2011) DVD5_by_Aleksey.avi

TASK
------------------------------
Format: AVI
Duration: 01:27:45:974 (126257)
VideoDecoder: MPEG2Source
Resolution: 720x480 > 720x400
VCodecPreset: Custom
VEncodingMode: ThreePassSize
VideoCodec: MPEG2 > XviD
Size: 3324.3 mb > 1400.0 mb
Quality: 0.451 > 0.294
Framerate: 29.970 > 23.976
FramerateModifer: ChangeFPS
SourceType: FILM
FieldOrder: UNKNOWN
Deinterlacer: TIVTC
AudioDecoder: NicAC3Source
AEncodingPreset: Custom
AudioCodec: AC3
AudioBitrate: 384 > 192
Samplerate: 48000
Channels: 2
Normalize: 98%
Accurate: 3%
Gain: 0.437

SCRIPT
------------------------------
import("Crogram Files (x86)WinnydowsXviD4PSP5dllsAviSynthfunctionsAudioFunctions.avs")
import("Crogram Files (x86)WinnydowsXviD4PSP5dllsAviSynthfunctionsVideoFunctions.avs")
loadplugin("Crogram Files (x86)WinnydowsXviD4PSP5appsDGMPGDecDGDecode.dll")
loadplugin("Crogram Files (x86)WinnydowsXviD4PSP5dllsAviSynthpluginsNicAudio.dll")
loadplugin("Crogram Files (x86)WinnydowsXviD4PSP5dllsAviSynthpluginsTIVTC.dll")

video = MPEG2Source("C:TempОтлучение (2011) DVD5.indexОтлучение (2011) DVD5_T01.d2v",cpu=0,info=3)
audio = NicAC3Source("C:TempОтлучение (2011) DVD5.indexОтлучение (2011) DVD5_T01 T80 2_0ch 384Kbps DELAY 0ms.ac3")
AudioDub(video, audio)

AutoYV12()
TFM(order=1).TDecimate(hybrid=1)
Crop(0, 4, -0, -0)
Spline64Resize(720, 400)


AmplifydB(0.437)


VIDEO ENCODING
------------------------------
Encoding video to: C:Temp�124.avi
XviD 2028kbps 720x400 23.976fps (126257 frames)
...first pass...

xvid_encraw.exe: -pass1 "C:Temp�124_1.log" -qmatrix "Crogram Files (x86)WinnydowsXviD4PSP5presetsmatrixcqmSharktooth's EQM v3ULR.cqm" -vhqmode 4 -nopacked -gmc -qpel -bvhq -max_bframes 3 -lumimasking  -threads 4 -i "C:Temp�124.avs" -o NUL

...second pass...

xvid_encraw.exe: -pass1 "C:Temp�124_2.log" -pass2 "C:Temp�124_1.log" -bitrate 2028000 -qmatrix "Crogram Files (x86)WinnydowsXviD4PSP5presetsmatrixcqmSharktooth's EQM v3ULR.cqm" -vhqmode 4 -nopacked -gmc -qpel -bvhq -max_bframes 3 -lumimasking -imin 1 -bmin 1 -pmin 1  -threads 4 -i "C:Temp�124.avs" -o NUL

...last pass...

xvid_encraw.exe: -pass2 "C:Temp�124_2.log" -bitrate 2028000 -qmatrix "Crogram Files (x86)WinnydowsXviD4PSP5presetsmatrixcqmSharktooth's EQM v3ULR.cqm" -vhqmode 4 -nopacked -gmc -qpel -bvhq -max_bframes 3 -lumimasking -imin 1 -bmin 1 -pmin 1  -threads 4 -i "C:Temp�124.avs" -avi "C:Temp�124.avi"


AUDIO ENCODING
------------------------------
Encoding audio to: C:Temp�124.ac3
AC3 192kbps 2ch 16bit 48000khz

aften.exe: -b 192 - "C:Temp�124.ac3"


MUXING
------------------------------
Video file: C:Temp�124.avi
Audio file: C:Temp�124.ac3
Muxing to: C:UsersAdministratorVideosОтлучение (2011) DVD5_by_Aleksey.avi

TIME
------------------------------
Общее время кодирования: 5 hour 8 min 49 sec
Файл получился на: 1399.19 mb

   MediaInfo: Скрытый текст / Картинка

General
Complete name                            : G:4downTorrentОтлучение (2011) DVDRip_by_Aleksey.avi
Format                                   : AVI
Format/Info                              : Audio Video Interleave
File size                                : 1.37 GiB
Duration                                 : 1h 27mn
Overall bit rate                         : 2 229 Kbps
Writing application                      : VirtualDubMod 1.5.10.2 (build 2540/release)
Writing library                          : VirtualDubMod build 2540/release

Video
ID                                       : 0
Format                                   : MPEG-4 Visual
Format profile                           : Advanced Simple@L5
Format settings, BVOP                    : 3
Format settings, QPel                    : Yes
Format settings, GMC                     : 3 warppoints
Format settings, Matrix                  : Custom
Codec ID                                 : XVID
Codec ID/Hint                            : XviD
Duration                                 : 1h 27mn
Bit rate                                 : 2 028 Kbps
Width                                    : 720 pixels
Height                                   : 400 pixels
Display aspect ratio                     : 16:9
Frame rate                               : 23.976 fps
Color space                              : YUV
Chroma subsampling                       : 4:2:0
Bit depth                                : 8 bits
Scan type                                : Progressive
Compression mode                         : Lossy
Bits/(Pixel*Frame)                       : 0.294
Stream size                              : 1.24 GiB (91%)
Writing library                          : XviD 1.2.1 (UTC 2008-12-04)

Audio
ID                                       : 1
Format                                   : AC-3
Format/Info                              : Audio Coding 3
Mode extension                           : CM (complete main)
Codec ID                                 : 2000
Duration                                 : 1h 27mn
Bit rate mode                            : Constant
Bit rate                                 : 192 Kbps
Channel(s)                               : 2 channels
Channel positions                        : Front: L R
Sampling rate                            : 48.0 KHz
Bit depth                                : 16 bits
Compression mode                         : Lossy
Stream size                              : 121 MiB (9%)
Alignment                                : Aligned on interleaves
Interleave, duration                     : 42 ms (1.00 video frame)
Interleave, preload duration             : 512 ms


Посмотреть онлайн на God-Tv.ru
ТипФильмы XviD/Mpeg/и другие
РаздающийПоследний раз был здесь 2:30:58 назад
Размер1.37 GB (1,467,156,480 байт)
Оценка
Оценка: 5.0 / 5 (5.0 из 5 с 8 Голосов)        (Log in to rate it)
Добавлен2012-07-30 09:20:52
Взят813
РаздалAleksey Респект
Файлов: 1
В раздаче: 1 0
Скачан 573

:: Список комментариев
Страницы: «  1 2 
:: Не в сети IURI4 ::Donor DJ IURI4 :: upload 267.93 GB :: download 159.43 GB :: 1.68 :: 0

Мне тоже фильм понравился!


Добавлено: 2012-08-04 19:00:59

:: Не в сети Aleksey ::Donor почётный ветеран трекера :: upload 363.39 TB :: download 1.44 TB :: 251.63 :: 0

IURI4 писал
Мне тоже фильм понравился!

о, какие люди зашли  :w00t:
благословений тебе! :rukopozhatie:


Добавлено: 2012-08-04 22:22:55

:: Не в сети Лорик ::Donor Опытный пользователь :: upload 252.43 GB :: download 92.37 GB :: 2.73 :: 0

очень хороший фильм.


Добавлено: 2012-10-31 16:45:46

:: Не в сети Alex10 :: Опытный пользователь :: upload 1.09 TB :: download 20.91 GB :: 53.55 :: 0

Спасибо


Добавлено: 2015-10-20 22:59:52

Всего 14 на 2 страницах по 10 на каждой странице.

Страницы: «  1 2 
 :: Добавить комментарий к торренту