загрузка пожалуйста подождите

GRACE CLOWN SHOW(Шоу Клоуна Благодати)




:: Детали торрента
В закладки
Для семейного просмотраЛоган / Logan (2010) HDTVRip Скачать
Хэш релизаba19d567d90ff560c59b44a1203889557aa0a2d4
Постер/Скриншоты
           
ОписаниеНазвание: Логан
Оригинальное название: Logan
Год выпуска: 2010
Жанр: Драма, комедия, семейный
Режиссер: Кайл Лоуренс, Калеб Дойл
Актеры: Лео Ховард, Патрик Пробст, Бу Бу Стюарт, Николь Камминс, Эмили Берри, Стив Майнер, Даг Феслер, Carlos Hagene, Ричард Хоффман мл., Отем Роуз, Джерри Руссо, Ной Захари, Джо Хаммерстоун, Aleh Neliubin, Барб Дж. Страуд, Паша Страуд, Робин Д. Страуд, Эрик А. Уильямс, Джонни Уильямс.

Описание фильма:
История двух братьев. У 13-летнего Логана появилась казалось бы фантастическая идея сделать настоящий фильм. После постоянных отказов сверстников в школе и небрежного отношения родителей Логан обращается к тому на кого, как он считает, можно всегда рассчитывать — своему старшему брату.

Качество: HDTVRip
Формат: AVI
Видео: DivX, 720x368, 25,000 fps, 2029 kbps
Аудио: MP3, 2 ch, 48,0 KHz, 192 kbps
Продолжительность: 01:33:45
Перевод: Русский профессиональный (многоголосый)

MediaInfo: Скрытый текст / Картинка
Общее
Формат                                   : AVI
Формат/Информация                        : Audio Video Interleave
Размер файла                             : 1,46 Гбайт
Продолжительность                        : 1 ч. 33 м.
Общий поток                              : 2231 Кбит/сек
Программа кодирования                    : VirtualDubMod 1.5.10.3 | www.virtualdub-fr.org || (build 2550/release)
Библиотека кодирования                   : VirtualDubMod build 2550/release

Видео
Идентификатор                            : 0
Формат                                   : MPEG-4 Visual
Профиль формата                          : Advanced Simple@L5
Параметр BVOP формата                    : 1
Параметр QPel формата                    : Нет
Параметр GMC формата                     : Без точки перехода
Параметр матрицы формата                 : Выборочная
Идентификатор кодека                     : DX50
Идентификатор кодека/Подсказка           : DivX 5
Продолжительность                        : 1 ч. 33 м.
Битрейт                                  : 2029 Кбит/сек
Ширина                                   : 720 пикселей
Высота                                   : 368 пикселей
Соотношение сторон                       : 1,957
Частота кадров                           : 25,000 кадров/сек
Цветовое пространство                    : YUV
Субдискретизация насыщенности            : 4:2:0
Битовая глубина                          : 8 бит
Тип развёртки                            : Прогрессивная
Метод сжатия                             : С потерями
Бит/(Пиксели*Кадры)                      : 0.306
Размер потока                            : 1,33 Гбайт (91%)
Библиотека кодирования                   : XviD 1.2.1 (UTC 2008-12-04)

Аудио
Идентификатор                            : 1
Формат                                   : MPEG Audio
Версия формата                           : Version 1
Профиль формата                          : Layer 3
Идентификатор кодека                     : 55
Идентификатор кодека/Подсказка           : MP3
Продолжительность                        : 1 ч. 33 м.
Вид битрейта                             : Постоянный
Битрейт                                  : 192 Кбит/сек
Каналы                                   : 2 канала
Частота                                  : 48,0 КГц
Метод сжатия                             : С потерями
Размер потока                            : 129 Мбайт (9%)
Выравнивание                             : Соединение по промежуткам
Продолжительность промежутка             : 40  мс. (1,00 видеокадр)
Время предзагрузки промежутка            : 504  мс.
Библиотека кодирования                   : LAME3.99
Настройки программы                      : -m s -V 4 -q 2 -lowpass 18.6 -b 192


Статус раздачи - http://s019.radikal.ru/i601/1203/7e/53045735b2a3.gif (рейтинг за скачивание не учитывается)
ТипДля семейного просмотра
РаздающийПоследний раз был здесь 4:28:35 назад
Размер1.46 GB (1,568,399,360 байт)
Оценка
Оценка: 5.0 / 5 (5.0 из 5 с 1 Голосов)        (Log in to rate it)
Добавлен2013-02-13 15:55:26
Взят242
РаздалA_N_I_m_a_T_O_R Респект
Файлов: 1
В раздаче: 0 0
Скачан 171

:: Список комментариев
Комментариев нет. Желаете добавить?

 :: Без комментариев